PDA

Ver la versión completa : Batman: El regreso del Caballero Oscuro, Parte 2 (2013) [BDRip 1080p mkv][AC3 Castellano DTS Ingles][Accion]


librebajada!
14/01/2013, 18:12
http://uppix.net/c/b/c/d278d7a4fe170ec1daa7e615f00c6.jpg


http://i1260.photobucket.com/albums/ii565/jrufait/info.png



Titulo Original: Batman: The Dark Knight Returns, Part 2
Titulo Traducido: Batman: El regreso del Caballero Oscuro, Parte 2
Año: 2013
Duración: min.
Director: Jay Oliva (http://www.filmaffinity.com/es/search.php?stype=director&stext=Jay+Oliva)
Guión: Bob Goodman (Cómic: Frank Miller. Personajes: Bob Kane)
Música: Christopher Drake
Fotografía: Animation
Reparto: Animation (http://www.filmaffinity.com/es/search.php?stype=cast&stext=Animation)
Productora: Warner Bros. Animation / Warner Premiere / DC Comics
Género: Animación (http://www.filmaffinity.com/es/moviegenre.php?genre=AN&attr=rat_count). Thriller (http://www.filmaffinity.com/es/moviegenre.php?genre=TH&attr=rat_count). Acción (http://www.filmaffinity.com/es/moviegenre.php?genre=AC&attr=rat_count) | Superhéroes (http://www.filmaffinity.com/es/movietopic.php?topic=462123&attr=rat_count). Cómic (http://www.filmaffinity.com/es/movietopic.php?topic=725819&attr=rat_count). DC Comics (http://www.filmaffinity.com/es/movietopic.php?topic=549998&attr=rat_count). Secuela (http://www.filmaffinity.com/es/movietopic.php?topic=638971&attr=rat_count). Animación para adultos (http://www.filmaffinity.com/es/movietopic.php?topic=470842&attr=rat_count)
Sinopsis: Siguiendo con los sucesos que nos hicieron vibrar en El Regreso del Caballero Oscuro: Primera Parte, un Batman odiado y querido a partes iguales por los ciudadanos de Ciudad Gotham será llevado hasta sus límites. Teniendo que enfrentarse de nuevo a un Joker más loco que nunca, se encontrará inesperadamente luchando a muerte con su antiguo aliado, Superman. Solo uno de lo



http://i1260.photobucket.com/albums/ii565/jrufait/FICHATECNICA.png


General
Unique ID : 240600972914473696882519122318856092020 (0xB5020FD4A558C5DAAB46844964ECF974)
Complete name : Batman21080libre.mkv
Format : Matroska
Format version : Version 2
File size : 5.54 GiB
Duration : 1h 15mn
Overall bit rate : 10.5 Mbps
Movie name : Batman 1080 para www.QueBajamos.li (http://www.QueBajamos.li)
Encoded date : UTC 2013-01-14 17:37:45
Writing application : mkvmerge v5.3.0 ('I could have danced') built on Feb 9 2012 10:38:07
Writing library : libebml v1.2.3 + libmatroska v1.3.0

Video
ID : 1
Format : AVC
Format/Info : Advanced Video Codec
Format profile : [email protected]
Format settings, CABAC : Yes
Format settings, ReFrames : 4 frames
Muxing mode : Header stripping
Codec ID : V_MPEG4/ISO/AVC
Duration : 1h 15mn
Bit rate : 8 811 Kbps
Width : 1 920 pixels
Height : 1 080 pixels
Display aspect ratio : 16:9
Frame rate mode : Constant
Frame rate : 23.976 fps
Color space : YUV
Chroma subsampling : 4:2:0
Bit depth : 8 bits
Scan type : Progressive
Bits/(Pixel*Frame) : 0.177
Stream size : 4.53 GiB (82%)
Title : Batman 1080 para www.QueBajamos.li (http://www.QueBajamos.li)
Writing library : x264 core 129 r2245 bc13772
Encoding settings : cabac=1 / ref=4 / deblock=1:0:0 / analyse=0x3:0x133 / me=umh / subme=7 / psy=1 / psy_rd=1.00:0.00 / mixed_ref=1 / me_range=16 / chroma_me=1 / trellis=1 / 8x8dct=1 / cqm=0 / deadzone=21,11 / fast_pskip=0 / chroma_qp_offset=-2 / threads=12 / lookahead_threads=2 / sliced_threads=0 / nr=0 / decimate=1 / interlaced=0 / bluray_compat=0 / constrained_intra=0 / bframes=3 / b_pyramid=2 / b_adapt=1 / b_bias=0 / direct=2 / weightb=0 / open_gop=0 / weightp=2 / keyint=240 / keyint_min=23 / scenecut=40 / intra_refresh=0 / rc_lookahead=40 / rc=2pass / mbtree=1 / bitrate=8811 / ratetol=1.0 / qcomp=0.60 / qpmin=10 / qpmax=51 / qpstep=4 / cplxblur=20.0 / qblur=0.5 / ip_ratio=1.40 / aq=1:1.00
Language : Spanish
Default : Yes
Forced : No

Audio #1
ID : 2
Format : AC-3
Format/Info : Audio Coding 3
Format profile : Dolby Digital
Mode extension : CM (complete main)
Format settings, Endianness : Big
Muxing mode : Header stripping
Codec ID : A_AC3
Duration : 1h 15mn
Bit rate mode : Constant
Bit rate : 192 Kbps
Channel(s) : 2 channels
Channel positions : Front: L R
Sampling rate : 48.0 KHz
Bit depth : 16 bits
Compression mode : Lossy
Stream size : 104 MiB (2%)
Language : Spanish
Default : Yes
Forced : Yes

Audio #2
ID : 3
Format : DTS
Format/Info : Digital Theater Systems
Mode : 16
Format settings, Endianness : Big
Muxing mode : Header stripping
Codec ID : A_DTS
Duration : 1h 15mn
Bit rate mode : Constant
Bit rate : 1 509 Kbps
Channel(s) : 6 channels
Channel positions : Front: L C R, Side: L R, LFE
Sampling rate : 48.0 KHz
Bit depth : 24 bits
Compression mode : Lossy
Stream size : 818 MiB (14%)
Language : English
Default : No
Forced : No

Menu
00:00:00.000 : en:00:00:00.000
00:09:48.296 : en:00:09:48.296
00:19:40.763 : en:00:19:40.763
00:31:00.442 : en:00:31:00.442
00:38:56.334 : en:00:38:56.334
00:48:59.145 : en:00:48:59.145
00:59:12.799 : en:00:59:12.799
01:08:50.918 : en:01:08:50.918
01:12:29.554 : en:01:12:29.554




http://quebajamos.li/images/streaming_icon.png (http://www.quebajamos.li/streaming.php?id=142)



http://i1275.photobucket.com/albums/y451/EssencialMac/MULTIPLESLINKS.jpg





ARCHIVOS RECUPERACION

********
http://clz.to/tcw8wipy
http://clz.to/wsxyb35h
http://clz.to/4bwjzap6
http://clz.to/trrq6cfl
http://clz.to/npcvscyo
*********




http://i1275.photobucket.com/albums/y451/EssencialMac/cloudzer.jpg (http://cloudzer.net/ref/7140114)

********
http://clz.to/f21fualg
http://clz.to/tcw8wipy
http://clz.to/z41aswuj
http://clz.to/wsxyb35h
http://clz.to/9bbj6z0q
http://clz.to/4bwjzap6
http://clz.to/4v0vfld2
http://clz.to/trrq6cfl
http://clz.to/m6c04wgp
http://clz.to/npcvscyo
http://clz.to/071cmxg6
http://clz.to/1t6eixtq
http://clz.to/2efelvc7
http://clz.to/phnn7yrg
http://clz.to/a6vhktd3
http://clz.to/i2jtokz3
http://clz.to/y540n83m
http://clz.to/ze7e7n8n
http://clz.to/63ful3bw
http://clz.to/5dnu7poz
http://clz.to/id7m512c
http://clz.to/zmdrktej
http://clz.to/0sam9uu4
http://clz.to/qd7jyahw
http://clz.to/am0z36cn
http://clz.to/vzv9wtmm
http://clz.to/nydmftmg
http://clz.to/amvt7bbn
http://clz.to/9spe9f6v
http://clz.to/7mubrum6
http://clz.to/sw9w7ec9
http://clz.to/i6tb6y3g
http://clz.to/honqlgvr
http://clz.to/yq8y6akm
*********



http://i1275.photobucket.com/albums/y451/EssencialMac/uploaded.jpg

********
http://ul.to/5fjax2c4
http://ul.to/njsz8frl
http://ul.to/erq03q6r
http://ul.to/p1ukly6v
http://ul.to/w648hscz
http://ul.to/40ltyfdk
http://ul.to/u2vzo7oe
http://ul.to/fw81gbdv
http://ul.to/2qpny6ww
http://ul.to/77d9b0ab
http://ul.to/9037btxf
http://ul.to/xgqtoweg
http://ul.to/6h22x8nq
http://ul.to/3fya99gg
http://ul.to/i6su0qrb
http://ul.to/ga1d82qw
http://ul.to/f8gwcbm9
http://ul.to/m2qhdd4t
http://ul.to/a2v9rdo3
http://ul.to/o0fhrdzd
http://ul.to/27jov8av
http://ul.to/2my74szj
http://ul.to/f3ns59p7
http://ul.to/ldj040bb
http://ul.to/xai4wkys
http://ul.to/y9n2xz9d
http://ul.to/opihesqs
http://ul.to/g0rhh2kj
http://ul.to/4uyzw92x
*********


http://i1275.photobucket.com/albums/y451/EssencialMac/free.jpg

********
http://dl.free.fr/vIMQhZWRL
http://dl.free.fr/nZYsJgHmK
http://dl.free.fr/raPAdsfT4
http://dl.free.fr/c3RSGxwVV
http://dl.free.fr/r1cylSyXd
http://dl.free.fr/gqpJ5RtxN
http://dl.free.fr/g5iAVT6iQ
http://dl.free.fr/hCcfequ0m
http://dl.free.fr/hJOjhHOyz
http://dl.free.fr/rQiqBwnfa
http://dl.free.fr/v2xsn50NX
http://dl.free.fr/nZcgcPiYA
http://dl.free.fr/neuDBuJmK
http://dl.free.fr/gILzUrJ23
http://dl.free.fr/gVB7OcKGz
http://dl.free.fr/j75OrRVtf
http://dl.free.fr/rKZcPgqYl
http://dl.free.fr/rc0iLvJXy
http://dl.free.fr/gYrJYSHYH
http://dl.free.fr/nhQN18Vhu
http://dl.free.fr/gstPCfwmC
http://dl.free.fr/h5Y4rR16a
http://dl.free.fr/j1GVgMxYW
http://dl.free.fr/cCfSqEdH9
http://dl.free.fr/g99YIBTdn
http://dl.free.fr/ro0TYVtSp
http://dl.free.fr/j3j9iUSJT
http://dl.free.fr/r7xxbAUKO
http://dl.free.fr/gE1UcCaBd
*********
http://i1275.photobucket.com/albums/y451/EssencialMac/zyppy.jpg

********
http://www53.zippyshare.com/v/95383306/file.html
http://www31.zippyshare.com/v/63009881/file.html
http://www45.zippyshare.com/v/52871481/file.html
http://www28.zippyshare.com/v/67028609/file.html
http://www24.zippyshare.com/v/62944385/file.html
http://www63.zippyshare.com/v/45057636/file.html
http://www20.zippyshare.com/v/92305648/file.html
http://www52.zippyshare.com/v/10121182/file.html
http://www53.zippyshare.com/v/22360349/file.html
http://www20.zippyshare.com/v/30453084/file.html
http://www69.zippyshare.com/v/88424242/file.html
http://www59.zippyshare.com/v/30640781/file.html
http://www61.zippyshare.com/v/68415068/file.html
http://www66.zippyshare.com/v/52709453/file.html
http://www65.zippyshare.com/v/26153121/file.html
http://www16.zippyshare.com/v/25023491/file.html
http://www12.zippyshare.com/v/5918871/file.html
http://www9.zippyshare.com/v/70929059/file.html
http://www51.zippyshare.com/v/52311760/file.html
http://www11.zippyshare.com/v/86448891/file.html
http://www57.zippyshare.com/v/73114470/file.html
http://www63.zippyshare.com/v/43830080/file.html
http://www40.zippyshare.com/v/98626405/file.html
http://www36.zippyshare.com/v/39301971/file.html
http://www30.zippyshare.com/v/61622941/file.html
http://www27.zippyshare.com/v/15284084/file.html
http://www10.zippyshare.com/v/88260252/file.html
http://www5.zippyshare.com/v/23647284/file.html
http://www41.zippyshare.com/v/91766556/file.html
*********


http://quebajamos.li/images/streaming_icon.png (http://www.quebajamos.li/streaming.php?id=142)

MisterK
14/01/2013, 19:39
http://uppix.net/c/b/c/d278d7a4fe170ec1daa7e615f00c6.jpg

Titulo Original: Batman: The Dark Knight Returns, Part 2
Titulo Traducido: Batman: El regreso del Caballero Oscuro, Parte 2
Año: 2013
Duración: min.
Director: Jay Oliva
Guión: Bob Goodman (Cómic: Frank Miller. Personajes: Bob Kane)
Música: Christopher Drake
Fotografía: Animation
Reparto: Animation
Productora: Warner Bros. Animation / Warner Premiere / DC Comics
Género: Animación. Thriller. Acción | Superhéroes. Cómic. DC Comics. Secuela. Animación para adultos
Sinopsis: Siguiendo con los sucesos que nos hicieron vibrar en El Regreso del Caballero Oscuro: Primera Parte, un Batman odiado y querido a partes iguales por los ciudadanos de Ciudad Gotham será llevado hasta sus límites. Teniendo que enfrentarse de nuevo a un Joker más loco que nunca, se encontrará inesperadamente luchando a muerte con su antiguo aliado, Superman.

*******General
Unique ID : 240600972914473696882519122318856092020 (0xB5020FD4A558C5DAAB46844964ECF974)
Complete name : Batman21080MisterK.mkv
Format : Matroska
Format version : Version 2
File size : 5.54 GiB
Duration : 1h 15mn
Overall bit rate : 10.5 Mbps
Encoded date : UTC 2013-01-14 17:37:45
Writing application : mkvmerge v5.3.0 ('I could have danced') built on Feb 9 2012 10:38:07
Writing library : libebml v1.2.3 + libmatroska v1.3.0

Video
ID : 1
Format : AVC
Format/Info : Advanced Video Codec
Format profile : [email protected]
Format settings, CABAC : Yes
Format settings, ReFrames : 4 frames
Muxing mode : Header stripping
Codec ID : V_MPEG4/ISO/AVC
Duration : 1h 15mn
Bit rate : 8 811 Kbps
Width : 1 920 pixels
Height : 1 080 pixels
Display aspect ratio : 16:9
Frame rate mode : Constant
Frame rate : 23.976 fps
Color space : YUV
Chroma subsampling : 4:2:0
Bit depth : 8 bits
Scan type : Progressive
Bits/(Pixel*Frame) : 0.177
Stream size : 4.53 GiB (82%)
Writing library : x264 core 129 r2245 bc13772
Encoding settings : cabac=1 / ref=4 / deblock=1:0:0 / analyse=0x3:0x133 / me=umh / subme=7 / psy=1 / psy_rd=1.00:0.00 / mixed_ref=1 / me_range=16 / chroma_me=1 / trellis=1 / 8x8dct=1 / cqm=0 / deadzone=21,11 / fast_pskip=0 / chroma_qp_offset=-2 / threads=12 / lookahead_threads=2 / sliced_threads=0 / nr=0 / decimate=1 / interlaced=0 / bluray_compat=0 / constrained_intra=0 / bframes=3 / b_pyramid=2 / b_adapt=1 / b_bias=0 / direct=2 / weightb=0 / open_gop=0 / weightp=2 / keyint=240 / keyint_min=23 / scenecut=40 / intra_refresh=0 / rc_lookahead=40 / rc=2pass / mbtree=1 / bitrate=8811 / ratetol=1.0 / qcomp=0.60 / qpmin=10 / qpmax=51 / qpstep=4 / cplxblur=20.0 / qblur=0.5 / ip_ratio=1.40 / aq=1:1.00
Language : Spanish
Default : Yes
Forced : No

Audio #1
ID : 2
Format : AC-3
Format/Info : Audio Coding 3
Format profile : Dolby Digital
Mode extension : CM (complete main)
Format settings, Endianness : Big
Muxing mode : Header stripping
Codec ID : A_AC3
Duration : 1h 15mn
Bit rate mode : Constant
Bit rate : 192 Kbps
Channel(s) : 2 channels
Channel positions : Front: L R
Sampling rate : 48.0 KHz
Bit depth : 16 bits
Compression mode : Lossy
Stream size : 104 MiB (2%)
Language : Spanish
Default : Yes
Forced : Yes

Audio #2
ID : 3
Format : DTS
Format/Info : Digital Theater Systems
Mode : 16
Format settings, Endianness : Big
Muxing mode : Header stripping
Codec ID : A_DTS
Duration : 1h 15mn
Bit rate mode : Constant
Bit rate : 1 509 Kbps
Channel(s) : 6 channels
Channel positions : Front: L C R, Side: L R, LFE
Sampling rate : 48.0 KHz
Bit depth : 24 bits
Compression mode : Lossy
Stream size : 818 MiB (14%)
Language : English
Default : No
Forced : No

Menu
00:00:00.000 : en:00:00:00.000
00:09:48.296 : en:00:09:48.296
00:19:40.763 : en:00:19:40.763
00:31:00.442 : en:00:31:00.442
00:38:56.334 : en:00:38:56.334
00:48:59.145 : en:00:48:59.145
00:59:12.799 : en:00:59:12.799
01:08:50.918 : en:01:08:50.918
01:12:29.554 : en:01:12:29.554********


http://imgratis.com/images/2012/07/25/MKnfF.png
Enlaces de 500MB intercambiables
********http://ul.to/dvtodv0i
http://ul.to/ba49npfa
http://ul.to/qsr9p7ia
http://ul.to/7u7iqp38
http://ul.to/9lidb3gg
http://ul.to/rqhc2upt
http://ul.to/fn65exj0
http://ul.to/3agafpsv
http://ul.to/jp0pgezh
http://ul.to/0bourz9v
http://ul.to/ekf6cnp2
http://ul.to/9gy2pvtc*********

http://imgratis.com/images/2012/12/10/cloudzer.png
Enlaces de 500MB intercambiables
********http://clz.to/gabz7n2w
http://clz.to/mltxtrrt
http://clz.to/65ybttrt
http://clz.to/nr20km1i
http://clz.to/n8t9y0q4
http://clz.to/d11hzrcs
http://clz.to/699pfmhd
http://clz.to/m0fdcllw
http://clz.to/innmxfgz
http://clz.to/2q3ztd1h
http://clz.to/vw2gazwv
http://clz.to/opbdergg*********

http://imgratis.com/images/2012/08/20/7a9Jg.png
Enlaces de 500MB intercambiables
********http://rapidgator.net/file/70834343/Batman21080MisterK.part01.rar.html
http://rapidgator.net/file/70834344/Batman21080MisterK.part02.rar.html
http://rapidgator.net/file/70834328/Batman21080MisterK.part03.rar.html
http://rapidgator.net/file/70834185/Batman21080MisterK.part04.rar.html
http://rapidgator.net/file/70834222/Batman21080MisterK.part05.rar.html
http://rapidgator.net/file/70834219/Batman21080MisterK.part06.rar.html
http://rapidgator.net/file/70834273/Batman21080MisterK.part07.rar.html
http://rapidgator.net/file/70834281/Batman21080MisterK.part08.rar.html
http://rapidgator.net/file/70834295/Batman21080MisterK.part09.rar.html
http://rapidgator.net/file/70834368/Batman21080MisterK.part10.rar.html
http://rapidgator.net/file/70834350/Batman21080MisterK.part11.rar.html
http://rapidgator.net/file/70834340/Batman21080MisterK.part12.rar.html*********

http://imgratis.com/images/2012/09/12/OeRqa.png
Enlaces de 500MB intercambiables
********http://freakshare.com/files/ef2kqp8r/Batman21080MisterK.part01.rar.html
http://freakshare.com/files/sb8dq83n/Batman21080MisterK.part02.rar.html
http://freakshare.com/files/10dbo4bt/Batman21080MisterK.part03.rar.html
http://freakshare.com/files/n10ga5d5/Batman21080MisterK.part04.rar.html
http://freakshare.com/files/04bkowdb/Batman21080MisterK.part05.rar.html
http://freakshare.com/files/mc4i8p3c/Batman21080MisterK.part06.rar.html
http://freakshare.com/files/88p1s6un/Batman21080MisterK.part07.rar.html
http://freakshare.com/files/7jv4g5az/Batman21080MisterK.part08.rar.html
http://freakshare.com/files/n4vimcgq/Batman21080MisterK.part09.rar.html
http://freakshare.com/files/bisf4zpo/Batman21080MisterK.part10.rar.html
http://freakshare.com/files/20g9axlb/Batman21080MisterK.part11.rar.html
http://freakshare.com/files/2uhuyvsh/Batman21080MisterK.part12.rar.html*********

javi29
14/01/2013, 23:45
http://uppix.net/c/b/c/d278d7a4fe170ec1daa7e615f00c6.jpg

TÍTULO ORIGINAL Batman: The Dark Knight Returns, Part 2
AÑO 2013
DURACIÓN 1:15:49.253
PAÍS [Estados Unidos]
DIRECTOR Jay Oliva
GUIÓN Bob Goodman (Cómic: Frank Miller. Personajes: Bob Kane)
MÚSICA Christopher Drake
FOTOGRAFÍA Animation
REPARTO Animation
PRODUCTORA Warner Bros. Animation / Warner Premiere / DC Comics
GÉNERO Animación. Thriller. Acción | Superhéroes. Cómic. DC Comics. Secuela. Animación para adultos
SINOPSIS Siguiendo con los sucesos que nos hicieron vibrar en El Regreso del Caballero Oscuro: Primera Parte, un Batman odiado y querido a partes iguales por los ciudadanos de Ciudad Gotham será llevado hasta sus límites. Teniendo que enfrentarse de nuevo a un Joker más loco que nunca, se encontrará inesperadamente luchando a muerte con su antiguo aliado, Superman. Solo uno de los dos podrá sobrevivir al combate definitivo. Segunda parte de la adaptación del aclamado cómic de Frank Miller "El retorno del señor de la noche". (FILMAFFINITY)

General
Formato : Matroska
Formato de la versión : Version 2
Tamaño del archivo : 7,51GIB
Duración : 1h 15min.
Modo de tasa de bits : Variable
Tasa de bits total : 14,2Mbps
Fecha de codificación : UTC 2013-01-14 21:19:36
Aplicación de codifición : mkvmerge v4.4.0 ('Die Wiederkehr') realizado en Oct 31 2010 21:52:48
Librería de codificación : libebml v1.0.0 + libmatroska v1.0.0

Video
ID : 1
Formato : AVC
Formato/Info : Advanced Video Codec
Formato del perfil : [email protected]
Ajustes del formato, CABAC : Si
Ajustes del formato, RefFrames : 4marcos
Modo Muxing : Container profile=[email protected]
ID Códec : V_MPEG4/ISO/AVC
Duración : 1h 15min.
Tasa de bits nominal : 8 811Kbps
Ancho : 1 920pixeles
Alto : 1 080pixeles
Relación de aspecto : 16:9
Modo de velocidad de cuadro : Constante
Velocidad de cuadro : 23,976fps
ColorSpace : YUV
ChromaSubsampling : 4:2:0
BitDepth/String : 8bits
Tipo de exploración : Progresivo
Bits/(Pixel*cuadro) : 0.177
Título : Batman. El regreso del Caballero Oscuro, Parte 2 BDrip 1080 por javi
Librería de codificación : x264 core 129 r2245 bc13772
Opciones de codificación : cabac=1 / ref=4 / deblock=1:0:0 / analyse=0x3:0x133 / me=umh / subme=7 / psy=1 / psy_rd=1.00:0.00 / mixed_ref=1 / me_range=16 / chroma_me=1 / trellis=1 / 8x8dct=1 / cqm=0 / deadzone=21,11 / fast_pskip=0 / chroma_qp_offset=-2 / threads=12 / lookahead_threads=2 / sliced_threads=0 / nr=0 / decimate=1 / interlaced=0 / bluray_compat=0 / constrained_intra=0 / bframes=3 / b_pyramid=2 / b_adapt=1 / b_bias=0 / direct=2 / weightb=0 / open_gop=0 / weightp=2 / keyint=240 / keyint_min=23 / scenecut=40 / intra_refresh=0 / rc_lookahead=40 / rc=2pass / mbtree=1 / bitrate=8811 / ratetol=1.0 / qcomp=0.60 / qpmin=10 / qpmax=51 / qpstep=4 / cplxblur=20.0 / qblur=0.5 / ip_ratio=1.40 / aq=1:1.00
Idioma : Español
Default : No
Forced : No

Audio #1
ID : 2
Formato : AC-3
Formato/Info : Audio Coding 3
Formato del perfil : Dolby Digital
Format_Settings_ModeExtension : CM (complete main)
Ajustes del formato, Endianness : Big
ID Códec : A_AC3
Duración : 1h 15min.
Tipo de tasa de bits : Constante
Tasa de bits : 192Kbps
Canal(es) : 2canales
Posiciones del canal : Front: L R
Velocidad de muestreo : 48,0KHz
BitDepth/String : 16bits
Tamaño de pista : 104MB (1%)
Título : castellano ac3
Idioma : Español
Default : Si
Forced : No

Audio #2
ID : 3
Formato : AC-3
Formato/Info : Audio Coding 3
Format_Settings_ModeExtension : CM (complete main)
Ajustes del formato, Endianness : Big
ID Códec : A_AC3
Duración : 1h 15min.
Tipo de tasa de bits : Constante
Tasa de bits : 640Kbps
Canal(es) : 6canales
Posiciones del canal : Front: L C R, Side: L R, LFE
Velocidad de muestreo : 48,0KHz
BitDepth/String : 16bits
Tamaño de pista : 347MB (5%)
Título : español latino ac3
Default : No
Forced : No

Audio #3
ID : 4
Formato : AC-3
Formato/Info : Audio Coding 3
Format_Settings_ModeExtension : CM (complete main)
Ajustes del formato, Endianness : Big
ID Códec : A_AC3
Duración : 1h 15min.
Tipo de tasa de bits : Constante
Tasa de bits : 640Kbps
Canal(es) : 6canales
Posiciones del canal : Front: L C R, Side: L R, LFE
Velocidad de muestreo : 48,0KHz
BitDepth/String : 16bits
Tamaño de pista : 347MB (5%)
Título : ingles ac3
Idioma : Inglés
Default : No
Forced : No

Audio #4
ID : 5
Formato : DTS
Formato/Info : Digital Theater Systems
Formato del perfil : MA / Core
Format_Settings_Mode : 16
Ajustes del formato, Endianness : Big
ID Códec : A_DTS
Duración : 1h 15min.
Tipo de tasa de bits : Variable
Tasa de bits : Desconocido / 1 509Kbps
Canal(es) : 6canales
Posiciones del canal : Front: L C R, Side: L R, LFE
Velocidad de muestreo : 48,0KHz
BitDepth/String : 24bits
Compression_Mode/String : / Lossy
Título : ingles dts hd
Idioma : Inglés
Default : No
Forced : No

Texto #1
ID : 6
Formato : VobSub
Modo Muxing : zlib
ID Códec : S_VOBSUB
ID Códec/Info : The same subtitle format used on DVDs
Idioma : Inglés
Default : Si
Forced : No

Texto #2
ID : 7
Formato : VobSub
Modo Muxing : zlib
ID Códec : S_VOBSUB
ID Códec/Info : The same subtitle format used on DVDs
Idioma : Español
Default : No
Forced : No



http://uppix.net/9/1/3/ae6e1470045086c454b4ee5d795b2.gif


http://uppix.net/d/6/4/2e36e424d8123ec9812213a7c00fb.png
http://ul.to/f/im5yk5


http://uppix.net/d/8/2/98cc952e756acd884835a688047a5.png
http://www.ddlstorage.com/folder/TcbmRafWRQ


http://uppix.net/f/7/5/d5839c4a077a7b6583aeebd1b9845.png

http://netfolder.in/jVHIMBS/batm4n2.BDrp.108.Javi


http://uppix.net/6/4/b/1f9622d3dcaed2f7abf8c2be1dc2c.png

http://clz.to/f/jpvquj

DangerHD
16/01/2013, 21:06
http://s1.*********.org/k81stiy3j/11365.jpg


MONTAJE PROPIO

************************************************** *****
************************************************** *******
************************************************** *****

http://www.filmaffinity.com/images/movie.gif Batman : El regreso del caballero oscuro, Parte 2



TÍTULO ORIGINAL Batman: The Dark Knight Returns, Part 2
AÑO 2013
DURACIÓN 75 min.
PAÍS [Estados Unidos]
DIRECTOR Jay Oliva
GUIÓN Bob Goodman (Cómic: Frank Miller. Personajes: Bob Kane)
MÚSICA Christopher Drake
FOTOGRAFÍA Animation
REPARTO Animation
PRODUCTORA Warner Bros. Animation / Warner Premiere / DC Comics
GÉNERO Animación. Thriller. Acción | Superhéroes. Cómic. DC Comics. Secuela. Animación para adultos
SINOPSIS Siguiendo con los sucesos que nos hicieron vibrar en El Regreso del Caballero Oscuro: Primera Parte, un Batman odiado y querido a partes iguales por los ciudadanos de Ciudad Gotham será llevado hasta sus límites. Teniendo que enfrentarse de nuevo a un Joker más loco que nunca, se encontrará inesperadamente luchando a muerte con su antiguo aliado, Superman. Solo uno de los dos podrá sobrevivir al combate definitivo. Segunda parte de la adaptación del aclamado cómic de Frank Miller "El retorno del señor de la noche". (FILMAFFINITY)



Puntuación Filmaffinity : 7,8

************************************************** ************************************************** ***************


http://img341.**********.us/img341/4338/matroska1.jpg




Formato: Matroska
Tamaño: 10,8GB
Codec Video: AVC
Resolucion: 1920x1080
Format profile: [email protected] Marcos 4
Frame Rate: 23.976 fps
Audio : Castellano; AC3 192 kbps ; 2 canales
Audio : Inglés; DTSMA 1510 kbps ; 6 canales
Subs: Subtitulos Castellano, Subtitulos Inglés



Archivos .rar 200mb aprox. + 5 archivos de recuperación .rev + 10% de recuperacion; 1 Archivo de verificación .sfv

¡¡¡¡Archivos intercambiables!!!


************************************************** ************************************************** *****************

MediaInfo

http://img525.**********.us/img525/4653/logomediainfo.png



General
Unique ID : 220760537563982102584421738055788352380 (0xA614EED7FF2E643D9DF07C7D9967537C)
Complete name : Batman.elregresodelcaballerooscuro2.BDrip.1080.esK uaK.mkv
Format : Matroska
Format version : Version 4 / Version 2
File size : 10.8 GiB
Duration : 1h 15mn
Overall bit rate mode : Variable
Overall bit rate : 20.3 Mbps
Encoded date : UTC 2010-02-22 21:41:31
Writing application : mkvmerge v5.9.0 ('On The Loose') built on Dec 9 2012 15:37:01
Writing library : libebml v1.3.0 + libmatroska v1.4.0

Video
ID : 1
Format : AVC
Format/Info : Advanced Video Codec
Format profile : [email protected]
Format settings, CABAC : Yes
Format settings, ReFrames : 4 frames
Codec ID : V_MPEG4/ISO/AVC
Duration : 1h 15mn
Nominal bit rate : 16.2 Mbps
Width : 1 920 pixels
Height : 1 080 pixels
Display aspect ratio : 16:9
Frame rate mode : Constant
Frame rate : 23.976 fps
Color space : YUV
Chroma subsampling : 4:2:0
Bit depth : 8 bits
Scan type : Progressive
Bits/(Pixel*Frame) : 0.326
Title : Batman : El regreso del caballero oscuro part 2 BDrip 1080 by esKuaK
Writing library : x264 core 129 r2230 1cffe9f
Language : English
Default : Yes
Forced : No

Audio #1
ID : 2
Format : AC-3
Format/Info : Audio Coding 3
Format profile : Dolby Digital
Mode extension : CM (complete main)
Format settings, Endianness : Big
Codec ID : A_AC3
Duration : 1h 15mn
Bit rate mode : Constant
Bit rate : 192 Kbps
Channel(s) : 2 channels
Channel positions : Front: L R
Sampling rate : 48.0 KHz
Bit depth : 16 bits
Compression mode : Lossy
Stream size : 104 MiB (1%)
Title : AC3 Castellano
Language : Spanish
Default : Yes
Forced : No

Audio #2
ID : 3
Format : DTS
Format/Info : Digital Theater Systems
Format profile : MA / Core
Mode : 16
Format settings, Endianness : Big
Codec ID : A_DTS
Duration : 1h 15mn
Bit rate mode : Variable
Bit rate : Unknown / 1 509 Kbps
Channel(s) : 6 channels
Channel positions : Front: L C R, Side: L R, LFE
Sampling rate : 48.0 KHz
Bit depth : 24 bits
Compression mode : Lossless / Lossy
Title : DTSMA Inglés
Language : English
Default : No
Forced : No

Text #1
ID : 4
Format : VobSub
Muxing mode : zlib
Codec ID : S_VOBSUB
Codec ID/Info : The same subtitle format used on DVDs
Title : Subtitulos Castellano
Language : Spanish
Default : No
Forced : No

Text #2
ID : 5
Format : PGS
Muxing mode : zlib
Codec ID : S_HDMV/PGS
Codec ID/Info : The same subtitle format used on BDs/HD-DVDs
Title : Subtitulos Castellano
Language : Spanish
Default : No
Forced : No

Text #3
ID : 6
Format : VobSub
Muxing mode : zlib
Codec ID : S_VOBSUB
Codec ID/Info : The same subtitle format used on DVDs
Title : Subtitulos Inglés
Language : English
Default : No
Forced : No

Text #4
ID : 7
Format : PGS
Muxing mode : zlib
Codec ID : S_HDMV/PGS
Codec ID/Info : The same subtitle format used on BDs/HD-DVDs
Title : Subtitulos Inglés
Language : Portuguese
Default : No
Forced : No

Menu
00:00:00.000 : en:00:00:00.000
00:09:48.296 : en:00:09:48.296
00:19:40.763 : en:00:19:40.763
00:31:00.442 : en:00:31:00.442
00:38:56.334 : en:00:38:56.334
00:48:59.145 : en:00:48:59.145
00:59:12.799 : en:00:59:12.799
01:08:50.918 : en:01:08:50.918
01:12:29.554 : en:01:12:29.554






************************************************** ******************

************************************************** ******************



Enlaces




http://i.*****.com/EJxQA.pnghttp://s14.*********.org/epmcv850x/ul_to.png



Archivos .rar 200mb aprox. + 5 archivos de recuperación .rev + 10% de recuperacion; 1 Archivo de verificación .sfv



http://s8.*********.org/3x181t6at/Link_Intercambiables.png



http://b72dd691.miniurls.co



Descarga de los verdaderos montadores, siempre tendrás soporte para todos sus aportes.



Cualquier tema, duda, error, aportes eliminados,problema de visualizacion en (HDD Multimedia, Reproductor Multimedia, PC, HTPC). Postearlo en el tema correspondiente. Siempre contesto y doi soluciones, también podeis mandarme un M.P. No olvideis dar al boton de gracias y comentar.



************************************************** ********************************
************************************************** ********************************


Programas Necesarios y/o Recomendados

http://img40.**********.us/img40/9369/sfvy.jpghttp://img26.**********.us/img26/3482/winrarhq.jpghttp://s14.*********.org/d060cbnlp/image.jpg
http://s15.*********.org/9hj16ewdz/7_ZIP_120x120.jpghttp://img94.**********.us/img94/7222/jdownloaderlogo.pnghttp://s9.*********.org/n5tfgrqd7/nab_Aeqy.png

JDownloader o Mipony : Gestor de descargas. Winrar o 7Zip Compresor/descompresor de archivos .Rar o .7Zip . QuickSFV o FlashSFV Verifica archivos .rar (Recomendable). HJSplitt Une las partes comprimidas en 7zip

************************************************** ********************************

Agradeceria comentario despues de visualizar el aporte. Gracias. Un saludo

aev2oo1
31/01/2013, 18:54
muchas gracias

juanito
10/02/2013, 16:51
Muchas gracias

wakawiros
18/06/2013, 03:06
--gracias--

josjimcor
29/09/2013, 23:35
muchas gracias

margonal
21/12/2013, 21:33
Buenas tardes,
Han caído los enlaces de la película:Batman El Regreso del caballero oscuro parte 2 1080p

Dejo el link del foro:
http://quebajamos.li/showthread.php?t=36341

Podrías, por favo, volver a subirla.
Muchas gracias de antemano.
Un saludo cordial,

MARCOS